Munna Michael 2017 Hindi 720p DvDRip x264 AAC ESub- Hon3y

  • Category Movies
  • Type Bollywood
  • Language Hindi
  • Total size 1,022.2 MB
  • Uploaded By Hon3yHD
  • Downloads 41229
  • Last checked 4 weeks ago
  • Date uploaded 1 month ago
  • Seeders 266
  • Leechers 128

Munna Michael

MusicAction

Munna Michael is an upcoming Indian action dance film directed by Sabbir Khan and produced by Viki Rajani and Eros International. The film features Tiger Shroff in a lead role alongside Nidhhi Agerwal and Nawazuddin Siddiqui.

Infohash : 6581AF62D82C6568C305A5ADE8C128ED580DCD4A

Munna Michael 2017 Hindi 720p DvDRip x264 AAC ESub- Hon3y


http://www.hdsector.com


Format : Matroska
Format version : Version 4 / Version 2
File size : 1 022 MiB
Duration : 2 h 19 min
Overall bit rate : 1 021 kb/s
Movie name : Munna Michael 2017- Hon3y


Video
ID : 1
Format : AVC
Format/Info : Advanced Video Codec
Format profile : [email protected]
Format settings, CABAC : Yes
Format settings, ReFrames : 8 frames
Codec ID : V_MPEG4/ISO/AVC
Duration : 2 h 19 min
Bit rate : 923 kb/s
Width : 1 280 pixels
Height : 544 pixels
Display aspect ratio : 2.35:1
Frame rate mode : Constant
Frame rate : 23.976 (24000/1001) FPS


Audio
ID : 2
Format : AAC
Format/Info : Advanced Audio Codec
Format profile : LC
Codec ID : A_AAC
Duration : 2 h 19 min
Bit rate : 96.0 kb/s
Channel(s) : 2 channels
Channel positions : Front: L R
Sampling rate : 48.0 kHz
Frame rate : 46.875 FPS (1024 spf)
Compression mode : Lossy
Delay relative to video : 9 ms
Stream size : 96.1 MiB (9%)
Language : English
Default : Yes
Forced : No

Text
ID : 3
Format : UTF-8
Codec ID : S_TEXT/UTF8
Codec ID/Info : UTF-8 Plain Text
Duration : 2 h 17 min
Bit rate : 50 b/s
Count of elements : 1922
Stream size : 51.1 KiB (0%)
Language : English
Default : Yes
Forced : No

Menu
00:00:00.000 : en:Chapter 01
00:04:16.834 : en:Chapter 02
00:07:35.668 : en:Chapter 03
00:10:16.735 : en:Chapter 04
00:13:33.502 : en:Chapter 05
00:17:53.804 : en:Chapter 06
00:21:43.871 : en:Chapter 07
00:25:16.438 : en:Chapter 08
00:30:29.705 : en:Chapter 09
00:34:05.838 : en:Chapter 10
00:37:46.372 : en:Chapter 11
00:41:57.606 : en:Chapter 12
00:43:53.973 : en:Chapter 13
00:50:58.374 : en:Chapter 14
00:53:38.208 : en:Chapter 15
00:57:23.475 : en:Chapter 16
01:00:49.109 : en:Chapter 17
01:10:22.976 : en:Chapter 18
01:14:11.543 : en:Chapter 19
01:22:07.910 : en:Chapter 20
01:25:23.344 : en:Chapter 21
01:27:24.878 : en:Chapter 22
01:30:45.812 : en:Chapter 23
01:36:03.912 : en:Chapter 24
01:42:40.813 : en:Chapter 25
01:46:06.313 : en:Chapter 26
01:47:57.647 : en:Chapter 27
01:51:06.215 : en:Chapter 28
02:01:17.850 : en:Chapter 29
02:04:27.651 : en:Chapter 30
02:11:24.951 : en:Chapter 31
02:17:01.552 : en:Chapter 32
02:19:43.219 : en:Chapter 33


http://www.hdsector.com


Files:

Munna Michael 2017 Hindi 720p DvDRip x264 AAC ESub- Hon3y
  • www.HDSector.com.mkv (1,022.2 MB)
  • www.HDSector.com.txt (0.0 KB)

Comments

Code:

  • udp://tracker.coppersurfer.tk:6969/announce
  • udp://tracker.zer0day.to:1337/announce
  • udp://shadowshq.yi.org:6969
  • udp://tracker.leechers-paradise.org:6969
  • udp://tracker.pirateparty.gr:6969/announce
  • udp://eddie4.nl:6969
  • udp://p4p.arenabg.com:1337/announce
  • udp://p4p.arenabg.ch:1337/announce
  • udp://tracker.leechers-paradise.org:6969/announce
  • udp://tracker.coppersurfer.tk:6969
  • udp://shadowshq.yi.org:6969/announce
  • udp://tracker.leechers-paradise.org:6969
  • udp://tracker.opentrackr.org:1337/announce
  • udp://explodie.org:6969/announce
  • udp://eddie4.nl:6969/announce